osu file format v14

[General]
AudioFilename: raja_ffm_-_the_light.mp3
AudioLeadIn: 1500
PreviewTime: 105641
Countdown: 0
SampleSet: Soft
StackLeniency: 0.7
Mode: 0
LetterboxInBreaks: 0
WidescreenStoryboard: 0

[Editor]
Bookmarks: 21474,42807,58807,64141,85474,106807,117474,128141
DistanceSpacing: 1
BeatDivisor: 4
GridSize: 4
TimelineZoom: 1

[Metadata]
Title:the light
TitleUnicode:the light
Artist:raja
ArtistUnicode:raja
Creator:Shadren
Version:Easy
Source:
Tags:snowflake emily richards ralf jacobsen remix winter mbc8 Monthly Mapping Contest 8
BeatmapID:676507
BeatmapSetID:301731

[Difficulty]
HPDrainRate:3
CircleSize:2
OverallDifficulty:2
ApproachRate:3
SliderMultiplier:1.2
SliderTickRate:2

[Events]
//Background and Video events
0,0,"BG.jpg",0,0
//Break Periods
//Storyboard Layer 0 (Background)
//Storyboard Layer 1 (Fail)
//Storyboard Layer 2 (Pass)
//Storyboard Layer 3 (Foreground)
//Storyboard Sound Samples

[TimingPoints]
10807,666.666666666667,4,2,0,50,1,0
42807,-100,4,2,0,50,0,1
58140,-100,4,2,0,50,0,0
61474,-100,4,2,0,30,0,0
64141,-100,4,2,0,50,0,0
106807,-100,4,2,0,50,0,1
128140,-100,4,2,0,50,0,0
128807,-100,4,2,0,45,0,0
129474,-100,4,2,0,35,0,0
130141,-100,4,2,0,25,0,0
130807,-100,4,2,0,15,0,0

[Colours]
Combo1 : 210,166,255
Combo2 : 66,160,255
Combo3 : 160,205,250
Combo4 : 7,206,235

[HitObjects]
264,208,21474,6,0,B|249:279|182:325|108:316|61:273,1,240,4|0,0:3|0:0,0:0:0:0:
144,183,23474,1,8,0:0:0:0:
224,92,24141,2,0,B|271:73|321:88|351:123,2,120,4|8|0,0:3|0:0|0:0,0:0:0:0:
264,208,26141,1,8,0:0:0:0:
344,300,26807,6,0,B|404:332|479:307|510:241|497:183,1,240,4|0,0:3|0:0,0:0:0:0:
412,100,28807,1,8,0:0:0:0:
300,60,29474,2,0,B|260:40|184:60|184:60|108:84|52:60,1,240,4|0,0:3|0:0,0:0:0:0:
20,108,31141,2,0,L|16:184,1,60,8|8,0:0|0:0,0:0:0:0:
88,264,32141,6,0,B|139:313|221:311|273:257|280:195,1,240,4|0,0:3|0:0,0:0:0:0:
300,88,34141,1,8,0:0:0:0:
388,168,34807,2,0,L|507:171,2,120,4|8|0,0:3|0:0|0:0,0:0:0:0:
300,88,36807,1,8,0:0:0:0:
200,156,37474,6,0,B|157:170|112:159|80:132,2,120,4|8|0,0:3|0:0|0:0,0:0:0:0:
300,88,39474,1,8,0:0:0:0:
404,148,40141,2,0,B|448:204|408:272|408:272|336:272|312:324,1,240,4|0,0:3|0:0,0:0:0:0:
272,356,41807,2,0,L|200:352,1,60,8|8,0:0|0:0,0:0:0:0:
100,304,42807,6,0,B|71:263|75:209|103:173,2,120,4|8|0,0:3|0:0|0:0,0:0:0:0:
200,240,44807,1,8,0:0:0:0:
292,164,45474,2,0,L|300:32,2,120,4|8|0,0:3|0:0|0:0,0:0:0:0:
328,212,47141,2,0,B|351:222|375:223|396:216,1,60,8|8,0:0|0:0,0:0:0:0:
476,140,48141,6,0,B|523:194|518:275|465:327|403:336,1,240,4|0,0:3|0:0,0:0:0:0:
296,328,50141,1,8,0:0:0:0:
180,296,50807,2,0,L|56:304,2,120,4|8|0,0:3|0:0|0:0,0:0:0:0:
220,252,52474,2,0,B|227:227|225:202|216:180,1,60,8|8,0:0|0:0,0:0:0:0:
280,88,53474,6,0,B|326:73|373:79|412:100,2,120,4|8|0,0:3|0:0|0:0,0:0:0:0:
164,116,55474,1,8,0:0:0:0:
80,200,56141,2,0,L|76:324,2,120,4|8|0,0:3|0:0|0:0,0:0:0:0:
44,152,57807,2,0,L|40:84,1,60,8|8,0:0|0:0,0:0:0:0:
256,192,58807,12,0,61474,0:0:0:0:
464,236,64141,6,0,B|466:307|399:363|320:345|285:290,1,240,4|0,0:3|0:0,0:0:0:0:
240,192,66141,1,8,0:0:0:0:
140,128,66807,2,0,L|20:132,2,120,4|8|0,0:3|0:0|0:0,0:0:0:0:
188,88,68474,2,0,L|264:92,1,60,8|8,0:0|0:0,0:0:0:0:
348,156,69474,6,0,B|388:175|432:172|468:152,2,120,4|8|0,0:3|0:0|0:0,0:0:0:0:
248,92,71474,1,8,0:0:0:0:
152,168,72141,2,0,B|176:224|128:280|128:280|168:348|248:320,1,240,4|0,0:3|0:0,0:0:0:0:
288,312,73807,2,0,B|322:304|356:312,1,60,8|8,0:0|0:0,0:0:0:0:
416,212,74807,6,0,B|431:171|432:129|420:91,2,120,4|8|0,0:3|0:0|0:0,0:0:0:0:
348,312,76807,1,8,0:0:0:0:
228,332,77474,2,0,B|162:343|100:300|84:232|107:178,1,240,4|0,0:3|0:0,0:0:0:0:
188,88,79474,1,8,0:0:0:0:
304,120,80141,6,0,B|346:128|386:116|416:92,2,120,4|8|0,0:3|0:0|0:0,0:0:0:0:
188,88,82141,1,8,0:0:0:0:
82,144,82807,2,0,B|114:200|178:208|178:208|157:275|212:328,1,240,4|0,0:3|0:0,0:0:0:0:
260,340,84474,2,0,L|328:332,1,60,8|8,0:0|0:0,0:0:0:0:
400,244,85474,6,0,B|402:195|431:155|471:136,2,120,4|8|0,0:3|0:0|0:0,0:0:0:0:
272,248,87474,1,8,0:0:0:0:
156,192,88141,2,0,B|148:132|92:96|92:96|116:24|204:28,1,240,4|0,0:3|0:0,0:0:0:0:
300,52,90141,1,8,0:0:0:0:
404,116,90807,6,0,B|395:160|407:203|432:236,2,120,4|8|0,0:3|0:0|0:0,0:0:0:0:
296,168,92807,1,8,0:0:0:0:
196,228,93474,2,0,B|222:294|165:371|71:354|44:288,1,240,4|0,0:3|0:0,0:0:0:0:
28,248,95141,2,0,B|32:225|28:203|20:183,1,60,8|8,0:0|0:0,0:0:0:0:
88,88,96141,6,0,B|128:67|175:73|207:99,2,120,4|8|0,0:3|0:0|0:0,0:0:0:0:
138,196,98141,1,8,0:0:0:0:
236,264,98807,2,0,B|300:284|340:224|340:224|304:156|372:108,1,240,4|0,0:3|0:0,0:0:0:0:
412,88,100474,2,0,L|472:92,1,60,8|8,0:0|0:0,0:0:0:0:
504,207,101474,6,0,B|517:253|514:299|500:340,2,120,4|8|0,0:3|0:0|0:0,0:0:0:0:
384,198,103474,1,8,0:0:0:0:
312,292,104141,2,0,B|266:348|178:348|127:284|132:219,1,240,4|0,0:3|0:0,0:0:0:0:
112,180,105807,2,0,B|79:167|44:172,1,60,8|8,0:0|0:0,0:0:0:0:
36,52,106807,5,4,3:1:0:0:
152,88,107474,2,0,B|194:103|237:97|272:76,1,120,8|0,0:0|0:0,0:0:0:0:
376,24,108807,1,8,0:0:0:0:
460,112,109474,2,0,B|492:172|464:228|464:228|396:240|388:320,1,240,4|0,3:1|0:0,0:0:0:0:
344,348,111141,2,0,L|280:344,1,60,8|8,0:0|0:0,0:0:0:0:
176,292,112141,6,0,B|129:280|82:297|52:331,2,120,4|8|0,3:1|0:0|0:0,0:0:0:0:
268,212,114141,1,8,0:0:0:0:
348,124,114807,2,0,B|416:124|456:84|456:84|452:156|484:212,1,240,4|0,3:1|0:0,0:0:0:0:
504,256,116474,2,0,L|500:324,1,60,8|8,0:0|0:0,0:0:0:0:
384,344,117474,6,0,B|342:364|296:359|260:336,1,120,4|8,3:1|0:0,0:0:0:0:
164,284,118807,2,0,B|127:263|83:263|48:281,1,120,0|8,0:0|0:0,0:0:0:0:
36,160,120141,2,0,B|101:188|174:169|220:117|232:57,1,240,4|0,3:1|0:0,0:0:0:0:
272,28,121807,2,0,B|295:24|317:28|337:36,1,60,8|8,0:0|0:0,0:0:0:0:
416,120,122807,5,4,3:1:0:0:
364,228,123474,2,0,B|326:255|278:254|241:232,1,120,8|0,0:0|0:0,0:0:0:0:
148,172,124807,1,8,0:0:0:0:
64,84,125474,2,0,B|13:132|9:211|52:268|110:287,1,240,4|0,3:1|0:0,0:0:0:0:
156,308,127141,2,0,L|220:296,1,60,8|8,0:0|0:0,0:0:0:0:
256,192,128141,12,0,130807,0:0:0:0:
